Un experto investigador de las Naciones Unidas (Brad Pitt) es forzado a tratar de parar lo que podría ser el fin del mundo en una carrera contra el tiempo y el destino. La destrucción a la que se ve sometida la raza humana le hace recorrer el mundo entero buscando respuestas sobre cómo parar la horrible pandemia intentando salvar las vidas de millones de desconocidos así como la de su propia familia.



Título: Guerra Mundial Z
Título original: World War Z
País: USA
Estreno en USA: 21/06/2013
Estreno en España: 02/08/2013
Productora: Paramount Pictures
Director: Marc Forster
Guión: Matthew Michael Carnahan, Damon Lindelof
Reparto: Brad Pitt, Mireille Enos, Eric West, Matthew Fox, David Morse, James Badge Dale, David Andrews, Michiel Huisman, Julian Seager, Elyes Gabel, Julia Levy-Boeken, Iván Kamarás, Trevor White, Sarah Sharman, Lee Nicholas Harris
Calificación: No recomendada para menores de 16 años



Código:
General
Unique ID                                : 171788570123944330433684152638458994875 (0x813D466EF41D054683581FB1EDE2A0BB)
Complete name                            : World.War.Z.3D.2013.1080p.BluRay.Half-SBS.Latino.5.1.Chamako.mkv
Format                                   : Matroska
Format version                           : Version 2
File size                                : 12.4 GiB
Duration                                 : 2h 3mn
Overall bit rate                         : 14.4 Mbps
Movie name                               : Guerra Mundial Z (2013) 3D SBS 1080P Latino
Encoded date                             : UTC 2013-09-08 21:24:51
Writing application                      : mkvmerge v3.4.0 ('Rapunzel') built on May 15 2010 09:38:20
Writing library                          : libebml v0.8.0 + libmatroska v0.9.0

Video
ID                                       : 1
Format                                   : AVC
Format/Info                              : Advanced Video Codec
Format profile                           : High@L4.1
MultiView_Count                          : 2
MultiView_Layout                         : Right Eye
Format settings, CABAC                   : Yes
Format settings, ReFrames                : 4 frames
Codec ID                                 : V_MPEG4/ISO/AVC
Duration                                 : 2h 3mn
Bit rate                                 : 12.0 Mbps
Nominal bit rate                         : 13.4 Mbps
Width                                    : 1 920 pixels
Height                                   : 1 080 pixels
Display aspect ratio                     : 16:9
Frame rate mode                          : Constant
Frame rate                               : 23.976 fps
Color space                              : YUV
Chroma subsampling                       : 4:2:0
Bit depth                                : 8 bits
Scan type                                : Progressive
Bits/(Pixel*Frame)                       : 0.241
Stream size                              : 10.3 GiB (83%)
Title                                    : Guerra Mundial Z
Writing library                          : x264 core 130 r2273 b3065e6
Encoding settings                        : cabac=1 / ref=4 / deblock=1:0:0 / analyse=0x3:0x113 / me=umh / subme=8 / psy=1 / psy_rd=1.00:0.00 / mixed_ref=1 / me_range=16 / chroma_me=1 / trellis=1 / 8x8dct=1 / cqm=0 / deadzone=21,11 / fast_pskip=1 / chroma_qp_offset=-2 / threads=12 / lookahead_threads=2 / sliced_threads=0 / nr=0 / decimate=1 / interlaced=0 / bluray_compat=0 / constrained_intra=0 / bframes=3 / b_pyramid=2 / b_adapt=2 / b_bias=0 / direct=3 / weightb=1 / open_gop=0 / weightp=2 / keyint=250 / keyint_min=23 / scenecut=40 / intra_refresh=0 / rc_lookahead=50 / rc=abr / mbtree=1 / bitrate=13400 / ratetol=1.0 / qcomp=0.60 / qpmin=0 / qpmax=69 / qpstep=4 / ip_ratio=1.40 / aq=1:1.00
Language                                 : English
Default                                  : No
Forced                                   : No

Audio #1
ID                                       : 2
Format                                   : AC-3
Format/Info                              : Audio Coding 3
Mode extension                           : CM (complete main)
Format settings, Endianness              : Big
Codec ID                                 : A_AC3
Duration                                 : 2h 3mn
Bit rate mode                            : Constant
Bit rate                                 : 640 Kbps
Channel(s)                               : 6 channels
Channel positions                        : Front: L C R, Side: L R, LFE
Sampling rate                            : 48.0 KHz
Bit depth                                : 16 bits
Compression mode                         : Lossy
Stream size                              : 563 MiB (4%)
Title                                    : Audio Latino 5.1
Language                                 : Spanish
Default                                  : Yes
Forced                                   : Yes

Audio #2
ID                                       : 3
Format                                   : DTS
Format/Info                              : Digital Theater Systems
Mode                                     : 16
Format settings, Endianness              : Big
Codec ID                                 : A_DTS
Duration                                 : 2h 3mn
Bit rate mode                            : Constant
Bit rate                                 : 1 509 Kbps
Channel(s)                               : 6 channels
Channel positions                        : Front: L C R, Side: L R, LFE
Sampling rate                            : 48.0 KHz
Bit depth                                : 24 bits
Compression mode                         : Lossy
Delay relative to video                  : 11ms
Stream size                              : 1.30 GiB (10%)
Title                                    :  English DTS
Language                                 : English
Default                                  : No
Forced                                   : No

Text #1
ID                                       : 4
Format                                   : ASS
Codec ID                                 : S_TEXT/ASS
Codec ID/Info                            : Advanced Sub Station Alpha
Compression mode                         : Lossless
Title                                    : Spanish Forzados 3D
Language                                 : Spanish
Default                                  : No
Forced                                   : Yes

Text #2
ID                                       : 5
Format                                   : ASS
Codec ID                                 : S_TEXT/ASS
Codec ID/Info                            : Advanced Sub Station Alpha
Compression mode                         : Lossless
Title                                    : Spanish 3D
Language                                 : Spanish
Default                                  : No
Forced                                   : No

Menu
00:00:00.000                             : en:00:00:00.000
00:05:05.180                             : en:00:05:05.180
00:13:04.659                             : en:00:13:04.659
00:20:31.188                             : en:00:20:31.188
00:27:02.579                             : en:00:27:02.579
00:32:38.039                             : en:00:32:38.039
00:39:35.331                             : en:00:39:35.331
00:49:06.152                             : en:00:49:06.152
00:55:22.027                             : en:00:55:22.027
01:01:41.239                             : en:01:01:41.239
01:09:18.654                             : en:01:09:18.654
01:17:03.035                             : en:01:17:03.035
01:22:09.842                             : en:01:22:09.842
01:27:51.558                             : en:01:27:51.558
01:36:41.587                             : en:01:36:41.587
01:45:14.099                             : en:01:45:14.099
01:48:46.645                             : en:01:48:46.645









2 ARCHIVO DE RECUPERACIÓN
Añadir el link al Jdownloader o MiPony, y empieza a descargar del host que mas te agrade
2 SERVIDORES DISPONIBLES

Guerra Mundial Z (2013) 3D SBS BDRip 1080p Latino 5.1

CONTRASEÑA: chamako (todo minusculas)

Si Algun link cae solo enviame un MP con el link del post y lo resubiré



Temas similares: